免費論壇 繁體 | 簡體
Sclub交友聊天~加入聊天室當版主
分享
返回列表 發帖

[百度]俄罗斯Джульбарс义犬救主(2020)1080i 8集/18.9G

本帖最後由 sfh525 於 2020-5-6 15:36 編輯
# a! {# y  O4 ?( O' g2 j6 Y: Q$ F$ `+ D# \+ k) E" Z# X/ E
暂无中文译名*# x. O6 H* e+ a$ u! U& b. E
俄语生肉
# F0 w) E9 {9 A0 }1 i' B9 A
% T( W+ u! ^% r, r  K- {3 i: a制作年份:2020
* }+ |! t. O) \7 W. X  F' y制作: ГОРАД, ВВП Альянс
" b! M& e6 ]& A类型:戏剧,历史,军事
; o5 l9 G7 N- r) S$ M4 L1 T( S片长:〜00:50:00系列
5 F6 Z* \+ v0 {字幕:无
4 q: d! ^! h4 Z+ b8 _1 g( g9 X导演:伊凡·舒克霍维茨基(Ivan Shurkhovetsky)演员:尼古拉·马丘斯基(Nikolai Machulsky),玛丽亚·安德烈耶娃(Maria Andreeva),阿列克谢·巴拉巴什(Alexey Barabash),亚历山大·马鲁舍夫(Alexander Marushev),索非亚·奥泽罗娃,维塔利·科尼年科(Vitaliy Kornienko),叶夫根尼·奥列霍夫(Evgeny Orekhov),尤里·谢尔比纳(Yuri Shcherbina),安东·谢平宁科夫(Anton Shpininkov),丹尼斯·斯维斯通(Denis Svistun)/ t4 u5 q9 Z, n; v$ G; w, ?  h
描述:1941年8月。服务犬繁殖的前沿学校位于第一线。平民与军队也受到攻击:基拉医生和她的小女儿丽莎。边境学校舍甫佐夫的指挥官了解到部队之间的力量不平等,并试图将他暗恋的基拉和女儿丽莎送到后方。在他们之后,一名党务员波利亚科夫(Boyakov)来到边境学校,他是丽莎(Lisa)的父亲。但是由于纳粹的迅速发展,所有计划都受挫。现在,小队被迫离开战斗。舍甫佐夫营救了基拉,丽莎和波利亚科夫,但边境学校被迫进行不平等的战斗,以便腾出时间疏散附近的城市。年轻,经验不足的边防军和他们的狗将挡在德国坦克的路上。步枪和fang牙打击装甲和机枪。. r( T8 m. |6 N" }: M
广告:无。6 I' e: [5 }7 m8 j% v; r9 W% M

% c  f3 Z! m  C+ C
! V8 M$ v4 o- x# I  I' D8 x4 L# h" M& n8 a, G! g
- N0 V8 T9 R; W4 B! V7 Z5 e
来自:https://rutracker.org/forum/viewtopic.php?t=58879181 G( _! |& {/ |, F* C: }  U
( Z, T" {1 i+ v& y& [/ w3 P* z
5 n/ I0 U2 J5 l, K% o3 b
  1. General
  2. ID : 1 (0x1)
  3. Complete name : H:\Dzhulbars.HDTV(1080i).GeneralFilm\01.Dzhulbars.HDTV(1080i).GeneralFilm.ts
  4. Format : MPEG-TS
  5. File size : 2.24 GiB
  6. Duration : 50 min 18 s
  7. Overall bit rate mode : Variable
  8. Overall bit rate : 6 387 kb/s

  9. Video
  10. ID : 1904 (0x770)
  11. Menu ID : 80 (0x50)
  12. Format : AVC
  13. Format/Info : Advanced Video Codec
  14. Format profile : High@L4
  15. Format settings : CABAC / 3 Ref Frames
  16. Format settings, CABAC : Yes
  17. Format settings, ReFrames : 3 frames
  18. Format settings, GOP : M=4, N=32
  19. Codec ID : 27
  20. Duration : 50 min 18 s
  21. Bit rate : 5 489 kb/s
  22. Width : 1 920 pixels
  23. Height : 1 080 pixels
  24. Display aspect ratio : 16:9
  25. Frame rate : 25.000 FPS
  26. Standard : Component
  27. Color space : YUV
  28. Chroma subsampling : 4:2:0
  29. Bit depth : 8 bits
  30. Scan type : Interlaced
  31. Scan type, store method : Separated fields
  32. Scan order : Top Field First
  33. Bits/(Pixel*Frame) : 0.106
  34. Stream size : 1.93 GiB (86%)
  35. Color range : Limited
  36. Color primaries : BT.709
  37. Transfer characteristics : BT.709
  38. Matrix coefficients : BT.709

  39. Audio #1
  40. ID : 2904 (0xB58)
  41. Menu ID : 80 (0x50)
  42. Format : AC-3
  43. Format/Info : Audio Coding 3
  44. Codec ID : 6
  45. Duration : 50 min 18 s
  46. Bit rate mode : Constant
  47. Bit rate : 384 kb/s
  48. Channel(s) : 6 channels
  49. Channel positions : Front: L C R, Side: L R, LFE
  50. Sampling rate : 48.0 kHz
  51. Frame rate : 31.250 FPS (1536 SPF)
  52. Bit depth : 16 bits
  53. Compression mode : Lossy
  54. Delay relative to video : -40 ms
  55. Stream size : 138 MiB (6%)
  56. Language : Russian
  57. Service kind : Complete Main

  58. Audio #2
  59. ID : 2905 (0xB59)
  60. Menu ID : 80 (0x50)
  61. Format : MPEG Audio
  62. Format version : Version 1
  63. Format profile : Layer 2
  64. Codec ID : 3
  65. Duration : 50 min 18 s
  66. Bit rate mode : Constant
  67. Bit rate : 192 kb/s
  68. Channel(s) : 2 channels
  69. Sampling rate : 48.0 kHz
  70. Frame rate : 41.667 FPS (1152 SPF)
  71. Compression mode : Lossy
  72. Delay relative to video : -40 ms
  73. Stream size : 69.1 MiB (3%)
  74. Language : Russian
複製代碼
附件: 您需要登錄才可以下載或查看附件。沒有帳號?註冊  
分享到: QQ空间QQ空间 腾讯微博腾讯微博 腾讯朋友腾讯朋友

因为本人与本网站的连接受阻严重,将较少频率查看回复.若本人发布的资源失效,站内私信!以便我发现并更新资源,谢谢合作.

很喜欢这部电影,谢谢分享。
你若安好便是晴天!

TOP

感谢楼主上传精彩影片
精神若是萎缩了,生命也就到头了。

TOP

感谢楼主上传精彩影片
精神若是萎缩了,生命也就到头了。

TOP

感谢楼主上传精彩影片
二战影片迷

TOP

感谢楼主上传精彩影片
二战影片迷

TOP

从前面的介绍看这是一部很不错的片子
wqwglyw

TOP

这电视剧能下吗???
居于有意无意之间

TOP

没有那么多子弹啊!

TOP

求中文字幕,谢谢
二战影片迷

TOP

返回列表
每日签到