免費論壇 繁體 | 簡體
Sclub交友聊天~加入聊天室當版主
分享
返回列表 發帖

[百度盘更新][我如何引发二战-三部曲全集喜剧片中字/mkv/8.7g]

; l' ]) i7 K( t; g  @
第三部链接已近更新
4 l+ z4 z9 W7 J/ N0 r本片为本坛战区参谋长zm0497精心制作之杰作,受其委托代为发布,在此特别感谢zm0497贤弟对本坛的特殊贡献!
: q# e7 Y4 P9 W( {4 R以下全文转自米坛:  P  h8 k3 b: K- B6 [
    我如何引发了二战三部曲HDTV720p.波语中字.mkv/彩色黑白双版本共5部
! \; A$ k2 n5 b  b, r. @0 L6 X    本次制作采用二战电影馆版主提供的彩色HDTV母版和黑白D9源盘,花了一个月时间制作剪辑校对,终于完成,均无水印。HDTV是俄文版,视频很好,音轨不行,于是比照俄文音轨波形,剪辑了一个波兰语音轨,加以匹配,终于完美了。字幕采用二战电影馆版主原创翻译,重新对齐时间轴,制作了特效,对应的是彩色版。黑白版字幕没时间制作了,喜欢的朋友来制作吧,彩色版3部,黑白版2部,一起放出。
0 a; Z: @  O0 i, P" y% [8 V; L: W
谢绝一切转载,转贴,转码和提取,鄙视窃贼网站(战W天下淘宝店居然号称修复版本,连影片介绍信息一并搬去出售)盗卖商用!!!
( W/ O% b. b% t: d, {8 w导演: 塔代茨 切米莱沃斯基
  q8 V# U& z0 ~0 Q" z主演: Marian Kociniak Janina Boronska Adam Cyprian + N2 t. o/ _6 w! ?
类型:  战争 /  喜剧 $ M  K" J: r. E. s! \; F
第一部分:逃生      . @) m% c6 H/ N) `+ W5 n9 ]1 |1 \' @
     1939年9月1日夜间,波兰士兵弗劳奈克杜拉斯睡过头自己跨过了波兰与德国的边界。睡醒后的弗劳奈克下车,他看到德国将军以为是德军跨越了边境马上开枪。此时的德国有准备的发起攻击波兰的信号也已开始。于是士兵弗劳克成为战俘,被送到了集中营,在集中营里他试图两次逃脱都没能成功。结果被转移到另一个集中营营地,在押送途中他制造了一系列难以置信的笑话.8 D, j! z9 u% e2 T3 k  M
第二部分:武器 3 E0 y( N7 L: h" O
     接第一部法国军舰营了幸存者。 弗兰克·多罗斯被迫加入法军的外籍军团,派往叙利亚边境的一座要塞。 驻要塞的指挥官,分派多罗斯作厨师。并让他和中士肯都斯一起去附近的阿拉伯集市采购食材。在集市上他用三张牌猜黑白赢了阿拉伯人的鸡羊和食物为要塞的士兵做出美味佳肴,可这却招致要塞指挥官下令逮捕弗兰克。为抗议上司的这种做法肯都斯率领外籍军团的士兵离开堡垒。指挥官只好释放多罗斯带来手下追击逃兵。 弗兰克趁机加入英国军队,在一个深夜意大利突击队员偷袭英军阵地,弗兰克乔装英国指挥官闯入意大利营地制造了一场大混乱……# Z$ G% q" X+ q% U! l
第三部分:返回故乡
4 Q' ?+ l/ \. D0 Z. b    接第二集弗兰克乔装意大利的医护兵护送伤员来到船上,在船上弗兰克被德军的刑罚队抓住,被军事法庭当成逃兵,遣送空投到俄国东部前线,结果他从飞机上跌落,高高的挂在修道院的大树上,神父帮他逃脱并参加了游击队。再一次执行阻击德军任务中,意外的将德军驻守的大桥引爆炸毁,游击队夺下桥梁赢得了这场战争,为此弗兰克成为了英雄,并赢得了女报务员特蕾莎的芳心。

( l3 k! M% N  n! b/ G% f$ a彩色版截图:
! n4 {3 G' W* |6 W& S& R  t4 g$ J; P0 `8 `+ z5 z  ^/ R
彩版参数:
/ P7 l9 M2 ~- U- o' M+ P: _5 {Complete name                   H:\BD高清国语\我如何引发了二战.S01.逃生.1970.HD.720p.波兰语.中字.mkv/ h0 E1 [$ w3 k1 c" x8 [
Format                                   : MKV
- Z8 Q- n7 @8 S, i& H- F: |1 [9 q+ v8 UFile size                                : 2.05 GiB
, N8 n# r# u, [. l5 cDuration                                 : 1h 22mn
) q7 R$ x$ m0 a& W; W3 qOverall bit rate                         : 3 565 Kbps* H% P4 `7 I$ ~) c2 O
Encoded date                             : UTC 2014-04-01 06:16:266 f' w1 ?+ D; U# G
Video0 H8 k: x7 }* r1 v0 d( J0 h
ID                                       : 12 D! M) z1 z0 F) m3 |+ x' V
Format                                   : AVC
! S/ Q9 R% b- A& W, {1 GFormat profile                           : High@L3.1$ f# Z# O% ~/ X( D* u- T, B
Format settings, CABAC                   : Yes+ K0 C7 f; u6 D, W4 g3 f
Duration                                 : 1h 22mn
) A; k7 w" V; ^4 h1 o$ L# bBit rate                                 : 3 300 Kbps
1 D  |* e8 n2 C7 q* _6 J2 g: vWidth                                    : 1 280 pixels% h) [# @/ B* m8 S0 P
Height                                   : 640 pixels
* W; z7 g; V' C: ZFrame rate                               : 25.000 fps
$ g' [! d: T' m- z" D2 TBit depth                                : 8 bits
- l0 H/ f0 }$ Q  A1 ]Stream size                              : 1.86 GiB (91%), T' R6 X0 i% e9 ]
Title                                    : AS
# j0 {3 e  X$ j3 ^  x) m) w4 w
4 f; Q, b9 b9 f) r( v5 @Audio! V1 ~3 ?1 F% a4 w" I4 I# H
ID                                       : 2
: g' i! Z- x. ~9 b3 ^! cFormat                                   : AC-3
6 s) N/ T4 V4 o* E3 sDuration                                 : 1h 22mn& x+ R; B1 Q7 f0 x
Bit rate                                 : 256 Kbps  j+ K' b7 D8 Y  q7 e1 s1 y
Channel(s)                               : 2 channels* G9 X" n: j) B; H  i- l
Channel positions                        : Front: L R! l& i- c4 ^% Z0 l3 M6 r; R2 t2 B
Sampling rate                            : 48.0 KHz
# e% a8 d9 _" }- R* qBit depth                                : 16 bits7 N6 y, @' r+ X% H2 N
Stream size                              : 151 MiB (7%)" N$ u( W) N3 m' q/ I3 u
Title                                    : AS
3 C1 ]4 t! l5 Q) q6 E+ f6 n$ ?2 f
. f4 I2 x6 I; S) h' MText
" w# a# x! q2 f+ Y& O, {ID                                       : 3
; l% L: J" P: V# YFormat                                   : ASS
% `3 D$ l' o5 n2 eCodec ID                                 : S_TEXT/ASS
2 b% h4 {  o2 s) P0 S. J9 YCodec ID/Info                            : Advanced Sub Station Alpha
0 k, o0 W( h  z% C& {$ s/ kTitle                                    : AS& {% x% c  K6 N9 `& l
Language                                 : Chinese
4 v, w: C, K- B' h0 Z' M+ v3 A& O. A
黑白版截图:
* B: R# h) B( N# J( n8 U! V. O4 R4 l9 I: L4 w+ D
黑白版参数:9 J6 V$ z' F# C1 Q* k
Complete name                     : H:\DVD标清国语\我如何引发了二战1.1969.D9\我如何引发了二战1.1969.D9.黑白.波兰语.mkv
8 [3 J5 J: W. V1 g% b+ EFormat                                   : MKV
, |6 m0 o& a+ \. i- {& }8 |- _File size                                : 1.49 GiB: u$ w: `/ W3 {! h: q) [
Duration                                 : 1h 30mn
3 d; u1 w4 M3 |# ?3 d. x; DOverall bit rate                         : 2 360 Kbps. T2 `) M( _& d! }
Encoded date                             : UTC 2014-03-12 00:59:32
7 n8 z+ C2 @: `- p' R6 x
' i: O% Q4 [4 R5 CVideo2 ]" Y1 m8 g' e7 }
ID                                       : 1
5 F1 W+ b: _* D% ]Format                                   : AVC5 b; O( P1 S) M4 Q+ r4 _" d. q
Format/Info                              : Advanced Video Codec; ~1 y% G2 q. Q
Format profile                           : High@L4.1  c) b) Y; Z  V' o, L
Format settings, CABAC                   : Yes
! k6 o4 R* o1 ZDuration                                 : 1h 30mn2 X7 T& y. A& {% J
Bit rate                                 : 1 993 Kbps: v$ R0 ]2 l' V$ S4 q
Width                                    : 720 pixels
; o9 C* I# X- z; }( t* s8 q$ [$ CHeight                                   : 368 pixels8 x$ U$ `( W5 |7 \7 M0 C! c
Frame rate                               : 25.000 fps1 X( F5 v6 [  y
Bit depth                                : 8 bits
* L* B1 z5 K6 F( M" CStream size                              : 1.26 GiB (84%)4 b' V/ Q2 ?5 @1 {$ z
Title                                    : AS2 a7 H8 X% x( r: R

( Y2 M9 j4 T) D) f/ x" QAudio
( r% L4 |/ K6 h1 |* T# OID                                       : 2
. b8 H$ m' h+ u4 u# }Format                                   : AC-3
! _( }5 Y! D; ]# mFormat/Info                              : Audio Coding 31 U# n" M) X' e. O2 \$ u
Duration                                 : 1h 30mn& M  n% ]" Y# F+ y
Bit rate                                 : 320 Kbps  X7 P4 J- R; P8 ~
Channel(s)                               : 2 channels7 [! b! b2 H( e: I
Channel positions                        : Front: L R
& g: K- d7 t7 x* d8 f/ z- ^Sampling rate                            : 48.0 KHz
  o3 q0 ]8 }. x) |Bit depth                                : 16 bits+ m: |8 F$ G" U
Stream size                              : 208 MiB (14%). q6 Y9 S* m: ~. V& {
Title                                    : AS
5 J# n" [1 L* a( d0 o下载地址:: Q4 g/ u& s% L: c. {, z7 o
彩版:* L7 }0 d0 F; i: m8 P

9 g1 q  {8 T" B( a
本帖隱藏的內容需要回復才可以瀏覽
附件: 您需要登錄才可以下載或查看附件。沒有帳號?註冊  
收藏 分享
分享到: QQ空间QQ空间 腾讯微博腾讯微博 腾讯朋友腾讯朋友

辛苦制作,非常不容易,感谢!
500 字節以內
不支持自定義 Discuz! 代碼

TOP

感谢分享,值得收藏!

TOP

多谢电影馆总司令与ZM参谋长的辛苦制作,一部经典波兰喜剧中文字幕版在战火隆重发布,可喜可贺
小日本真是欠扁

TOP

大家辛苦了!好片子!

TOP

谢谢两位辛勤付出,工程浩大!

TOP

感谢楼主有心制作了,无私分享精神
ljq

TOP

这个是战火的重头戏,辛苦了

TOP

看过了,还想再看看哦,谢谢发片

TOP

非常感谢楼主无私分享!谢谢!
雄关漫道真如铁, 而今迈步从头越

TOP

返回列表
每日签到